Your IP Address is . Location is Your ISP and Government can track your torrent activity! Hide your IP with a VPN!

1921 2018 Hindi Pre-DVDRip x264 AAC { TaRa }

DOWNLOAD TORRENT DOWNLOAD DOWNLOAD ANONYMOUS

Posted by SkTaRa •157 on January 13, 2018 in Movies » Horror , verified torrent

Size: 697.8 MB , Seeds: 180 , Peers: 167 ( Updated January 14, 2018 - Refresh )

* Download via Magnet Link , * To download files you need a Bittorrent Client , * How to download torrents from Bit Torrent Scene?

Scrape History ( seeds + peers )

Internal Files

1921 2018 Hindi Pre-DVDRip x264 AAC { TaRa }
www.hdsector.to.txt   793 Byte
www.hdsector.to.nfo   6.53 KB
1921-2018-Hindi-Movie-Full-Mp3-Album.jpg   53.31 KB
a720dbc49681f06640befbd2202176f4.jpg   144.96 KB
1921 2018 Hindi Pre-DVDRip x264 AAC { TaRa }.mkv   697.6 MB

Hash Code

1c72f3d7b3be63acbeed9bccc5508d36b990c6bb

Description


1921 2018 Hindi Pre-DVDRip x264 AAC [ HDSector.to ] { TaRa }.mkv
SCREENSHOT
SCREENSHOT
===================================================================
General
Complete name : 1921 2018 Hindi Pre-DVDRip x264 AAC [ HDSector.to ] { TaRa }.mkv
Format : Matroska
Format version : Version 4 / Version 2
File size : 698 MiB
Duration : 2 h 14 min
Overall bit rate : 723 kb/s
===================================================================
Video
ID : 1
Format : AVC
Format/Info : Advanced Video Codec
Format profile : Main@L3
Format settings, CABAC : Yes
Format settings, ReFrames : 4 frames
Codec ID : V_MPEG4/ISO/AVC
Duration : 2 h 14 min
Bit rate : 594 kb/s
Width : 720 pixels
Height : 320 pixels
Display aspect ratio : 2.25:1
Frame rate mode : Constant
Frame rate : 30.000 FPS
Color space : YUV
Chroma subsampling : 4:2:0
Bit depth : 8 bits
Scan type : Progressive
Bits/(Pixel*Frame) : 0.086
Stream size : 572 MiB (82%)
Title : HDSector.to
Writing library : x264 core 112
Language : Hindi
Default : Yes
Forced : No
===================================================================
Audio
ID : 2
Format : AAC
Format/Info : Advanced Audio Codec
Format profile : LC
Codec ID : A_AAC
Duration : 2 h 14 min
Bit rate : 128 kb/s
Channel(s) : 2 channels
Channel positions : Front: L R
Sampling rate : 44.1 kHz
Frame rate : 43.066 FPS (1024 spf)
Compression mode : Lossy
Stream size : 123 MiB (18%)
Title : HDSector.to
Language : Hindi
Default : Yes
Forced : No
===================================================================

SCREENSHOT
SCREENSHOT
SCREENSHOT
SCREENSHOT
SCREENSHOT
SCREENSHOT
SCREENSHOT
SCREENSHOT
SCREENSHOT
SCREENSHOT
SCREENSHOT
SCREENSHOT
SCREENSHOT
SCREENSHOT

SCREENSHOT
SCREENSHOT
SCREENSHOT
SCREENSHOT
SCREENSHOT
SCREENSHOT

SCREENSHOT

Trackers

Refresh Leechers : Updated January 14, 2018

1. http://ipv4.tracker.harry.lu/announce

2. http://ipv4.tracker.harry.lu:80/announce

3. http://tracker.electro-torrent.pl/announce

4. http://tracker.electro-torrent.pl:80/announce

5. http://retracker.mgts.by:80/announce

6. http://pt.lax.mx:80/announce

7. http://tracker.torrentyorg.pl:80/announce

8. http://163.172.180.68/announce

9. http://82.209.230.66/announce

10. http://107.174.238.55:80/announce

11. udp://tracker.opentrackr.org:1337/announce

12. udp://tracker.openbittorrent.com:80/announce

13. udp://tracker.coppersurfer.tk:6969/announce

14. udp://tracker.coppersurfer.tk:80/announce

15. udp://tracker.coppersurfer.tk:6969

Comments

You must log in to add a comment.

Embed Code

Sharing Widget

Top Movies ( auto generated report )

FILENAME SIZE SEEDS PEERS ADDED UPD
[i] Geostorm (2017) [1080p] [YTS AG] 1.67 GB 5754 3112 1 day 5 hours
[i] Geostorm (2017) [720p] [YTS AG] 812.63 MB 5412 3658 1 day 5 hours
[i] Jigsaw (2017) [1080p] [YTS AG] 1.4 GB 4322 2711 1 day 16 hours
[i] Jigsaw (2017) [720p] [YTS AG] 675.39 MB 3922 2227 1 day 16 hours
[i] Mollys Game 2017 DVDScr XVID AC3 HQ Hive CM8 1.79 GB 2207 1893 1 day 18 hours
[i] Darkest.Hour.2017.DVDScr.XVID.AC3.HQ.Hive-CM8 1.92 GB 2179 593 6 days 8 hours
[i] Professor Marston and the Wonder Women (2017) [720p] [YTS AG] 791.43 MB 2159 1179 4 days 3 days
[i] Acts.of.Violence.2018.WEB-DL.x264-FGT [rarbg] 760.65 MB 1769 734 5 days 4 days
[i] Acts of Violence.2018.HDRip.XviD.AC3-EVO 1.42 GB 1760 1444 5 days 4 days
[i] Thank You for Your Service (2017) [720p] [YTS AG] 801.88 MB 1658 1072 3 days 2 days