Your IP Address is . Location is Your ISP and Government can track your torrent activity! Hide your IP with a VPN!

Black Panther 2018 NEW PROPER HD-TS X264 MP3 128Kbps LLG

DOWNLOAD TORRENT DOWNLOAD PROTECT YOUR PRIVACY

Posted by LifeLongg •598 on April 16, 2018 in Movies » Action , verified torrent

Size: 1.17 GB , Seeds: 37 , Peers: 12 ( Updated April 22, 2018 - Refresh )

* Download via Magnet Link , * To download files you need a Bittorrent Client , * How to download torrents from Bit Torrent Scene?

Scrape History ( seeds + peers )

Internal Files

Black.Panther.2018.NEW.PROPER.HD-TS.X264.MP3.128Kbps.LLG
Sample.ts   14.36 MB
Black.Panther.2018.NEW.PROPER.HD-TS.X264.MP3.128Kbps.LLG.mp4   1.16 GB

Hash Code

3f6710dc471efe64c4c6f60efc5362c62cdf6072

Description

SCREENSHOT

SCREENSHOT

******************************Thumbnail:**********************

SCREENSHOT

******************************Screenshots:********************

Screenshot 1

Screenshot 2

Screenshot 3

Screenshot 4

Screenshot 5

Screenshot 6

Screenshot 7

Screenshot 8

Screenshot 9

Screenshot 0

**************************************************************

Complete name : Black.Panther.2018.NEW.PROPER.HD-TS.X264.MP3.128Kbps.LLG.mp4
Format : MPEG-4
Format profile : Base Media
Codec ID : isom (isom/iso2/avc1/mp41)
File size : 1.16 GiB
Duration : 2 h 4 min
Overall bit rate : 1 332 kb/s
Writing application : Lavf57.56.101

Video
ID : 1
Format : AVC
Format/Info : Advanced Video Codec
Format profile : High@L3
Format settings : CABAC / 4 Ref Frames
Format settings, CABAC : Yes
Format settings, RefFrames : 4 frames
Codec ID : avc1
Codec ID/Info : Advanced Video Coding
Duration : 2 h 4 min
Bit rate : 1 200 kb/s
Width : 720 pixels
Height : 320 pixels
Display aspect ratio : 2.25:1
Frame rate mode : Constant
Frame rate : 23.976 (23976/1000) FPS
Color space : YUV
Chroma subsampling : 4:2:0
Bit depth : 8 bits
Scan type : Progressive
Bits/(Pixel*Frame) : 0.217
Stream size : 1.04 GiB (90%)


Audio
ID : 2
Format : MPEG Audio
Format version : Version 1
Format profile : Layer 3
Format settings : Joint stereo / MS Stereo
Codec ID : mp4a-6B
Duration : 2 h 4 min
Bit rate mode : Constant
Bit rate : 128 kb/s
Channel(s) : 2 channels
Sampling rate : 44.1 kHz
Compression mode : Lossy
Stream size : 114 MiB (10%)
Writing library : LAME3.99.5
Default : Yes
Alternate group : 1

Trackers

Refresh Leechers : Updated April 22, 2018

1. udp://tracker.openbittorrent.com:80/announce

2. udp://tracker.opentrackr.org:1337/announce

3. UDP://TRACKER.LEECHERS-PARADISE.ORG:6969/ANNOUNCE

Comments

You must log in to add a comment.

Embed Code

Sharing Widget

Related torrents

FILENAME SIZE SEEDS PEERS ADDED UPD
[i] Black Panther (2018) 720p HC HDTC 999MB - MkvCage 1002.3 MB 3515 1354 1 week 9 hours
[i] Black Panther (2018) 720p HDTS 999MB - MkvCage 1011.3 MB 2759 295 1 month 2 weeks
[i] Black Panther (2018) 720p HDTS 999MB - MkvCage 1 GB 672 103 3 weeks 1 week
[i] Black Panther 2018 720p TS x264 AAC
posted by moviefreak in Movies - Action
1.15 GB 202 37 1 month 1 week
[i] Black Panther 2018 TSHQ Latino [ZonaTorrent2 Com] avi
posted by Megacine in Movies - Sci-fi
2.42 GB 153 18 2 months 16 hours
[i] Black Panther 2018 iTALiAN READNFO MD HDTS XviD-iSTANCE[MT]
posted by Survivalofmisa in Movies - Action
1.46 GB 137 103 1 month 2 weeks
[i] Black Panther 2018 720P New HDTS-X264-MP3-Zi$t 1.68 GB 129 37 1 month 6 days
[i] Black Panther 2018 720p HC HDTC AAC LLG
posted by LifeLongg in Movies - Action
877.28 MB 125 241 1 week 2 days
[i] Black Panther 2018 HDTC X264 AC3 With Sample LLG
posted by LifeLongg in Movies - Action
1.47 GB 122 70 1 week 1 day
[i] Black Panther 2018 FULL HDCAM ENG X264-.UNiQUE 1.96 GB 111 51 1 month 2 weeks

Top Movies ( auto generated report )

FILENAME SIZE SEEDS PEERS ADDED UPD
[i] Fifty Shades Freed (2018) [WEBRip] [720p] [YTS AM] 891.52 MB 4343 2607 1 day 1 hour
[i] Pacific Rim 2 Uprising 2018 720p korsub hdrip x264 aac2 0-stuttershit 2.75 GB 3342 743 3 days 2 days
[i] What Happened to Monday (2017) [BluRay] [720p] [YTS AM] 1.04 GB 2783 1114 1 day 1 hour
[i] Fifty Shades Freed (2018) [WEBRip] [1080p] [YTS AM] 1.68 GB 3764 1854 1 day 1 hour
[i] What Happened to Monday (2017) [BluRay] [1080p] [YTS AM] 1.99 GB 2003 670 1 day 1 hour
[i] Genesis (2018) [WEBRip] [720p] [YTS AM] 965.85 MB 1369 860 3 days 3 days
[i] downloadhub in Sonu Ke Titu Ki Sweety (2018) Hindi 720p HDRip x264 AAC ESubs - Downloadhub 1.06 GB 1297 910 6 days 3 days
[i] Corbin Nash (2018) [WEBRip] [720p] [YTS AM] 824.69 MB 1240 725 3 days 3 days
[i] The Debt Collector (2018) [BluRay] [720p] [YTS AM] 818.36 MB 1225 444 3 days 1 day
[i] Genesis (2018) [WEBRip] [1080p] [YTS AM] 1.81 GB 1010 581 3 days 3 days