Have I Got a Bit More News for You S55E02 revittony

Posted by revittony •438 on April 17, 2018 in Series » Misc , verified torrent

Size: 491.63 MB , Seeds: 0 , Peers: 0 ( Updated June 20, 2018 - Refresh )

Could not find any peer statistics from any torrent tracker.
This does not mean the torrent is dead.

* Download via Magnet Link , * To download files you need a Bittorrent Client , * How to download torrents from Bit Torrent Scene?

Scrape History ( seeds + peers )

Internal Files

Have I Got a Bit More News for You S55E02.mp4
Have I Got a Bit More News for You S55E02.mp4   491.63 MB

Hash Code

4aea371269befe0800293ed2a9ed83e229fe1977

Description

Format : MPEG-4
Format profile : Base Media
Codec ID : isom (isom/iso2/avc1/mp41)
File size : 729 MiB
Duration : 42 min 8 s
Overall bit rate mode : Variable
Overall bit rate : 2 420 kb/s
Collection : get_iplayer

Video
ID : 1
Format : AVC
Format/Info : Advanced Video Codec
Format profile : High@L4.1
Format settings : CABAC / 2 Ref Frames
Format settings, CABAC : Yes
Format settings, RefFrames : 2 frames
Codec ID : avc1
Codec ID/Info : Advanced Video Coding
Duration : 42 min 8 s
Bit rate mode : Variable
Bit rate : 2 321 kb/s
Maximum bit rate : 3 500 kb/s
Width : 1 280 pixels
Height : 720 pixels
Display aspect ratio : 16:9
Frame rate mode : Constant
Frame rate : 25.000 FPS
Color space : YUV
Chroma subsampling : 4:2:0
Bit depth : 8 bits
Scan type : Progressive
Bits/(Pixel*Frame) : 0.101
Stream size : 699 MiB (96%)

Audio
ID : 2
Format : AAC
Format/Info : Advanced Audio Codec
Format profile : LC
Codec ID : mp4a-40-2
Duration : 42 min 8 s
Bit rate mode : Variable
Bit rate : 93.4 kb/s
Maximum bit rate : 94.9 kb/s
Channel(s) : 2 channels
Channel positions : Front: L R
Sampling rate : 48.0 kHz
Frame rate : 46.875 FPS (1024 SPF)
Compression mode : Lossy
Stream size : 28.1 MiB (4%)
Default : Yes
Alternate group : 1

Trackers

Refresh Leechers : Updated June 20, 2018

1. udp://tracker.coppersurfer.tk:6969/announce

2. udp://tracker.zer0day.to:1337/announce

3. udp://tracker.leechers-paradise.org:6969

Comments

You must log in to add a comment.

Embed Code

Sharing Widget

Related torrents

FILENAME SIZE SEEDS PEERS ADDED UPD
[i] Roger Daltrey - As Long As I Have You (2018) Mp3 (320kbps) [Hunter]
posted by The_Hunter in Music - Rock
86.46 MB 63 0 1 month 2 weeks
[i] Guide To Create A Powerful Multipurpose Windows PC Repair and Diagnostic Tool into a Thumb Drive or DVD - A Must Have For Every Windows PC User 4.1 MB 60 3 3 months 3 weeks
[i] David Icke - Everything You Need to Know But Have Never Been Told (2017) pdf
posted by roflcopter2110 in Ebooks - History
31.55 MB 40 7 2 weeks 21 hours
[i] [Brazzers]Karma Rx - You Have The Right To Remain Sexy(NEW**06.23.2018)
posted by nsanyi23 in Porn - Movies
364.34 MB 31 5 4 weeks 2 weeks
[i] Have We Been Deceived About What Happened on 9/11? - Christopher Bollyn (2014) 690.88 MB 22 1 1 week 6 days
[i] How to Have Multiple Orgasms by Janalee Beck 29.63 MB 18 0 2 months 2 weeks
[i] Latin Girls Have Daddy Issues [Diabolic]**Split Scenes**(NEW***07.03.2018)
posted by nsanyi23 in Porn - Movies
1.42 GB 16 11 2 weeks 4 days
[i] The Complete Picture Guide to Great Sex Step-by-step Pictures of All You Need to Know to Have the Most Amazing Sex Ever try in 300 color photos and illustration 48.8 MB 15 0 6 months 3 weeks
[i] Killing.Eve.S01E05.I.Have.a.Thing.About.Bathrooms.720p.AMZN.WEB-DL.DDP5.1.H.264-NTb[eztv] 812.3 MB 15 39 2 months 2 months
[i] [IHaveAWife/NaughtyAmerica]Alexis Texas - I Have A Wife(NEW**05.19.2018)
posted by nsanyi23 in Porn - Movies
335.46 MB 14 4 2 months 4 weeks

Top Series ( auto generated report )

FILENAME SIZE SEEDS PEERS ADDED UPD
[i] The.Originals.S05E11.WEB.x264-TBS[ettv] 492.63 MB 1329 359 2 days 1 day
[i] Suits.S08E01.720p.HDTV.x264-AVS [rarbg] 735 MB 930 186 2 days 2 days
[i] Condor.S01E06.WEBRip.x264-PBS[ettv] 275.7 MB 903 132 2 days 1 day
[i] Robin.Williams.Come.Inside.My.Mind.2018.HDTV.x264-aAF[ettv] 579.08 MB 744 166 4 days 3 days
[i] Wentworth.S06E05.WEBRip.x264-MFOSHiT[ettv] 388.58 MB 588 81 4 days 3 days
[i] Animal.Kingdom.US.S03E08.WEBRip.x264-TBS[ettv] 339.35 MB 523 79 4 days 3 days
[i] Who.is.America.S01E01.HDTV.x264-aAF[ettv] 142.48 MB 521 58 5 days 4 days
[i] Salvation.S02E04.HDTV.x264-SVA[ettv] 221.73 MB 472 39 4 days 4 days
[i] MasterChef.Australia.S10E54.HDTV.x264-SPC[ettv] 575.72 MB 421 56 2 days 1 day
[i] Yellowstone.2018.S01E04.WEBRip.x264-TBS[ettv] 345.82 MB 399 52 2 days 2 days