Your IP Address is . Location is Your ISP and Government can track your torrent activity! Hide your IP with a VPN!

Have I Got a Bit More News for You S55E02 revittony

DOWNLOAD TORRENT DOWNLOAD PROTECT YOUR PRIVACY

Posted by revittony •354 on April 17, 2018 in Series » Misc , verified torrent

Size: 491.63 MB , Seeds: 9 , Peers: 1 ( Updated April 23, 2018 - Refresh )

* Download via Magnet Link , * To download files you need a Bittorrent Client , * How to download torrents from Bit Torrent Scene?

Scrape History ( seeds + peers )

Internal Files

Have I Got a Bit More News for You S55E02.mp4
Have I Got a Bit More News for You S55E02.mp4   491.63 MB

Hash Code

4aea371269befe0800293ed2a9ed83e229fe1977

Description

Format : MPEG-4
Format profile : Base Media
Codec ID : isom (isom/iso2/avc1/mp41)
File size : 729 MiB
Duration : 42 min 8 s
Overall bit rate mode : Variable
Overall bit rate : 2 420 kb/s
Collection : get_iplayer

Video
ID : 1
Format : AVC
Format/Info : Advanced Video Codec
Format profile : High@L4.1
Format settings : CABAC / 2 Ref Frames
Format settings, CABAC : Yes
Format settings, RefFrames : 2 frames
Codec ID : avc1
Codec ID/Info : Advanced Video Coding
Duration : 42 min 8 s
Bit rate mode : Variable
Bit rate : 2 321 kb/s
Maximum bit rate : 3 500 kb/s
Width : 1 280 pixels
Height : 720 pixels
Display aspect ratio : 16:9
Frame rate mode : Constant
Frame rate : 25.000 FPS
Color space : YUV
Chroma subsampling : 4:2:0
Bit depth : 8 bits
Scan type : Progressive
Bits/(Pixel*Frame) : 0.101
Stream size : 699 MiB (96%)

Audio
ID : 2
Format : AAC
Format/Info : Advanced Audio Codec
Format profile : LC
Codec ID : mp4a-40-2
Duration : 42 min 8 s
Bit rate mode : Variable
Bit rate : 93.4 kb/s
Maximum bit rate : 94.9 kb/s
Channel(s) : 2 channels
Channel positions : Front: L R
Sampling rate : 48.0 kHz
Frame rate : 46.875 FPS (1024 SPF)
Compression mode : Lossy
Stream size : 28.1 MiB (4%)
Default : Yes
Alternate group : 1

Trackers

Refresh Leechers : Updated April 23, 2018

1. udp://tracker.coppersurfer.tk:6969/announce

2. udp://tracker.zer0day.to:1337/announce

3. udp://tracker.leechers-paradise.org:6969

Comments

You must log in to add a comment.

Embed Code

Sharing Widget

Related torrents

FILENAME SIZE SEEDS PEERS ADDED UPD
[i] I Have A Wife 46[Naughty America]**Split Scenes**
posted by nsanyi23 in Porn - Movies
2.64 GB 53 87 6 days 5 days
[i] Bettye LaVette - Things Have Changed (2018) Mp3 (320kbps) [Hunter]
posted by The_Hunter in Music - Blues
137.57 MB 45 3 3 weeks 1 week
[i] The.Haves.and.the.Have.Nots.S05E10.A.Lovers.Passions.HDTV.x264-CRiMSON[eztv] 248.04 MB 31 12 1 month 2 weeks
[i] The Complete Picture Guide to Great Sex Step-by-step Pictures of All You Need to Know to Have the Most Amazing Sex Ever try in 300 color photos and illustration 48.8 MB 24 1 3 months 1 week
[i] The.Haves.and.the.Have.Nots.S05E01.Afraid.of.Flames.HDTV.x264... 193.29 MB 23 1 3 months 5 days
[i] The.Haves.and.the.Have.Nots.S05E07.Every.Six.Months.HDTV.x264-CRiMSON[eztv] 234.29 MB 22 3 2 months 3 weeks
[i] The.Haves.and.the.Have.Nots.S05E09.An.Eye.for.an.Eye.HDTV.x264-CRiMSON[eztv] 234.16 MB 22 6 1 month 2 weeks
[i] The 'Have-More' Plan - 'A Little Land -- A Lot of Living' - How to Make a Small Cash Income into the Best and Happiest Living Any Family Could Want 13.6 MB 21 2 3 weeks 1 week
[i] The.Haves.and.the.Have.Nots.S05E01.Afraid.of.Flames.HDTV.x264-CRiMSON[eztv] 193.41 MB 18 2 3 months 5 days
[i] Jonathan Gray - The Forbidden Secret: How To Survive What the Elite Have Planned For You (2011) pdf - roflcopter2110
posted by roflcopter2110 in Ebooks - Misc
66.67 MB 18 0 1 month 2 weeks

Top Series ( auto generated report )

FILENAME SIZE SEEDS PEERS ADDED UPD
[i] Westworld.S02E01.WEB.H264-DEFLATE[ettv] 510.05 MB 3817 802 2 days 1 day
[i] Legion.S02E04.720p.HDTV.x264-AVS [rarbg] 1.01 GB 1043 394 11 hours 9 hours
[i] Supernatural.S13E19.720p.HDTV.x264-AVS[rarbg] 743.57 MB 1937 399 5 days 4 days
[i] The.Flash.2014.S04E19.HDTV.x264-SVA[ettv] 309 MB 1243 1094 15 hours 13 hours
[i] Young.Sheldon.S01E19.HDTV.x264-SVA[ettv] 132.8 MB 822 81 5 days 4 days
[i] Young.Sheldon.S01E19.720p.HDTV.x264-AVS[rarbg] 475.57 MB 764 66 5 days 4 days
[i] Young.Sheldon.S01E19.HDTV.x264-SVA[rarbg] 128.82 MB 721 50 5 days 4 days
[i] Blindspot.S03E18.PROPER.720p.HDTV.x264-KILLERS [rarbg] 1.07 GB 672 69 4 days 3 days
[i] Blindspot.S03E18.PROPER.HDTV.x264-KILLERS[ettv] 293 MB 505 80 4 days 3 days
[i] Siren.2018.S01E05.WEB.x264-TBS[ettv] 332 MB 501 140 5 days 4 days