Only Connect S13E35 Semi Final 1 revittony

Posted by revittony •438 on April 17, 2018 in Series » Misc , verified torrent

Size: 342.06 MB , Seeds: 0 , Peers: 0 ( Updated June 20, 2018 - Refresh )

Could not find any peer statistics from any torrent tracker.
This does not mean the torrent is dead.

* Download via Magnet Link , * To download files you need a Bittorrent Client , * How to download torrents from Bit Torrent Scene?

Scrape History ( seeds + peers )

Internal Files

Only Connect S13E35 Semi Final 1.mp4
Only Connect S13E35 Semi Final 1.mp4   342.06 MB

Hash Code

7d7887b53ba5e40fae14c12e3c779d7d426147e0

Description

Format : MPEG-4
Format profile : Base Media
Codec ID : isom (isom/iso2/avc1/mp41)
Overall bit rate mode : Variable
Overall bit rate : 2 405 kb/s

Video
ID : 1
Format : AVC
Format/Info : Advanced Video Codec
Format profile : High@L4.1
Format settings, CABAC : Yes
Format settings, RefFrames : 2 frames
Codec ID : avc1
Codec ID/Info : Advanced Video Coding
Bit rate mode : Variable
Bit rate : 2 306 kb/s
Maximum bit rate : 3 500 kb/s
Width : 1 280 pixels
Height : 720 pixels
Display aspect ratio : 16:9
Frame rate mode : Constant
Frame rate : 25.000 FPS
Color space : YUV
Chroma subsampling : 4:2:0
Bit depth : 8 bits
Scan type : Progressive
Bits/(Pixel*Frame) : 0.100
Stream size : 478 MiB (96%)

Audio
ID : 2
Format : AAC
Format/Info : Advanced Audio Codec
Format profile : LC
Codec ID : 40
Bit rate mode : Constant
Bit rate : 93.5 kb/s
Channel(s) : 2 channels
Channel positions : Front: L R
Sampling rate : 48.0 kHz
Frame rate : 46.875 FPS (1024 SPF)
Compression mode : Lossy
Stream size : 19.4 MiB (4%)
Default : Yes
Alternate group : 1

Trackers

Refresh Leechers : Updated June 20, 2018

1. udp://tracker.coppersurfer.tk:6969/announce

2. udp://tracker.zer0day.to:1337/announce

3. udp://tracker.leechers-paradise.org:6969

Comments

You must log in to add a comment.

Embed Code

Sharing Widget

Top Series ( auto generated report )

FILENAME SIZE SEEDS PEERS ADDED UPD
[i] The.Originals.S05E11.WEB.x264-TBS[ettv] 492.63 MB 1329 359 3 days 2 days
[i] Suits.S08E01.720p.HDTV.x264-AVS [rarbg] 735 MB 930 186 3 days 3 days
[i] Condor.S01E06.WEBRip.x264-PBS[ettv] 275.7 MB 903 132 2 days 1 day
[i] Killjoys.S04E01.HDTV.x264-LucidTV[ettv] 277.99 MB 560 62 1 day 13 hours
[i] Animal.Kingdom.US.S03E08.WEBRip.x264-TBS[ettv] 339.35 MB 523 79 4 days 3 days
[i] Quantico.S03E11.HDTV.x264-LucidTV[ettv] 277.06 MB 479 77 1 day 14 hours
[i] MasterChef.Australia.S10E54.HDTV.x264-SPC[ettv] 575.72 MB 421 56 3 days 2 days
[i] Yellowstone.2018.S01E04.WEBRip.x264-TBS[ettv] 345.82 MB 399 52 3 days 2 days
[i] Big.Brother.US.S20E10.HDTV.x264-[NY2] 235.6 MB 397 33 3 days 2 days
[i] The.Bold.Type.S02E07.WEB.x264-TBS[ettv] 336.9 MB 217 36 4 days 3 days