Skyscraper 2018 720p HDCAM x264 AAC [MW]

Posted by moviefreak •1855 on July 12, 2018 in Movies » Action , verified torrent

Size: 800.62 MB , Seeds: 98 , Peers: 15 ( Updated July 18, 2018 - Refresh )

Quality: Audio 8/10 - Video 7/10 ( defined by users )

* Download via Magnet Link , * To download files you need a Bittorrent Client , * How to download torrents from Bit Torrent Scene?

Scrape History ( seeds + peers )

Internal Files

Skyscraper 2018 720p HDCAM x264 AAC [MW]
Skyscraper 2018 720p HDCAM x264 AAC [MW].mkv   800.62 MB

Hash Code

8ea23087f7c679cdb02b2baab4e986c5e24a9ae1

Description


SCREENSHOT


General
Format : Matroska
Format version : Version 4 / Version 2
File size : 801 MiB
Duration : 1 h 24 min
Overall bit rate : 1 332 kb/s

Video
ID : 1
Format : AVC
Format/Info : Advanced Video Codec
Format profile : High@L4.1
Format settings : CABAC / 4 Ref Frames
Format settings, CABAC : Yes
Format settings, RefFrames : 4 frames
Codec ID : V_MPEG4/ISO/AVC
Duration : 1 h 24 min
Bit rate : 1 200 kb/s
Width : 1 178 pixels
Height : 532 pixels
Display aspect ratio : 2.2:1
Frame rate mode : Constant
Frame rate : 29.970 (30000/1001) FPS
Color space : YUV
Chroma subsampling : 4:2:0
Bit depth : 8 bits
Scan type : Progressive
Bits/(Pixel*Frame) : 0.064
Stream size : 722 MiB (90%)
Writing library : x264 core 155 r2901 7d0ff22
Default : Yes
Forced : No

Audio
ID : 2
Format : AAC
Format/Info : Advanced Audio Codec
Format profile : LC
Codec ID : A_AAC-2
Duration : 1 h 24 min
Bit rate : 128 kb/s
Channel(s) : 2 channels
Channel positions : Front: L R
Sampling rate : 48.0 kHz
Frame rate : 46.875 FPS (1024 SPF)
Compression mode : Lossy
Stream size : 76.9 MiB (10%)
Default : Yes
Forced : No


https://pichub.site/image/aMwsd
https://pichub.site/image/aMhzu
https://pichub.site/image/aMi5R
https://pichub.site/image/aMtjs
https://pichub.site/image/aM8wB

Trackers

Refresh Leechers : Updated July 18, 2018

1. udp://tracker.coppersurfer.tk:6969/announce

2. udp://tracker.pirateparty.gr:6969/announce

3. udp://tracker.coppersurfer.tk:6969/announce

4. udp://tracker.leechers-paradise.org:6969/announce

5. udp://eddie4.nl:6969/announce

6. udp://tracker.tiny-vps.com:6969/announce

7. udp://9.rarbg.me:2800/announce

8. udp://9.rarbg.to:2720/announce

9. udp://public.popcorn-tracker.org:6969/announce

10. udp://open.stealth.si:80/announce

11. udp://tracker.vanitycore.co:6969/announce

12. udp://tracker.opentrackr.org:1337/announce

13. udp://bt.firebit.co.uk:6969/announce

14. udp://shadowshq.yi.org:6969/announce

Comments

You must log in to add a comment.

TARDIS66 •12 2018-07-12 23:46:45

AUDIO: 8 - VIDEO: 7

Has 1x bets through the movie Not bad video but not HD to me Sound is good Just ruined by ads

Embed Code

Sharing Widget

Related torrents

FILENAME SIZE SEEDS PEERS ADDED UPD
[i] Skyscraper.2018.720p.HDCAM.1XBET 2.4 GB 173 77 1 week 1 week
[i] Skyscraper 2018 720p FULL HDCAM X264 [MW]
posted by moviefreak in Movies - Action
1.15 GB 60 9 6 days 20 hours
[i] Skyscraper 2018 720p HDCAM x264 Dual Audio [Hindi (Cleaned) - English] [MW]
posted by moviefreak in Movies - Action
886.79 MB 55 23 6 days 4 hours
[i] Skyscraper 2018 720p HDCAM X264 With Sample LLG
posted by LifeLongg in Movies - Action
1006.36 MB 32 25 5 days 4 days
[i] Skyscraper 2018 NEW 720p FULL HDCAM X264 HQMic-24HD 2.49 GB 25 18 1 week 1 day
[i] Skyscraper 2018 NEW 720p FULL HDCAM X264 HQMic-900MB[MOVCR]
posted by Tamilgun in Movies - Misc
909.4 MB 1 22 1 week 1 week
[i] Skyscraper 2018 NEW 720p FULL HDCAM X264 HQMic-24HD[MOVCR]
posted by Tamilgun in Movies - Misc
2.5 GB 1 21 1 week 1 week

Top Movies ( auto generated report )

FILENAME SIZE SEEDS PEERS ADDED UPD
[i] Tully (2018) [BluRay] [720p] [YTS AM] 804.81 MB 1836 1717 6 hours 4 hours
[i] Robin Williams Come Inside My Mind (2018) [WEBRip] [1080p] [YTS AM] 1.85 GB 1116 300 6 hours 4 hours
[i] Tully (2018) [BluRay] [1080p] [YTS AM] 1.52 GB 1356 1168 6 hours 4 hours
[i] Godzilla City on the Edge of Battle (2018) [WEBRip] [720p] [YTS AM] 862.3 MB 1123 404 6 hours 4 hours
[i] Tango One (2018) [BluRay] [720p] [YTS AM] 967.28 MB 1073 689 4 days 3 days
[i] Jurassic World Fallen Kingdom 2018 NEW HD-TS XViD AC3 ETRG 1.35 GB 1065 832 4 days 3 days
[i] Robin Williams Come Inside My Mind (2018) [WEBRip] [720p] [YTS AM] 973.96 MB 1020 260 6 hours 4 hours
[i] Ghost Stories (2017) [WEBRip] [720p] [YTS AM] 829.59 MB 966 356 6 hours 4 hours
[i] Ghost Stories (2017) [WEBRip] [1080p] [YTS AM] 1.56 GB 815 215 6 hours 4 hours
[i] Godzilla City on the Edge of Battle (2018) [WEBRip] [1080p] [YTS AM] 1.62 GB 825 274 6 hours 4 hours