The Imitation Game 2014 720p BluRay x264 Dual Audio [Hindi 2 0 - English 2 0] ESub

Posted by moviefreak •1686 on March 14, 2018 in Movies » Drama , verified torrent

Size: 893.67 MB , Seeds: 14 , Peers: 5 ( Updated June 21, 2018 - Refresh )

* Download via Magnet Link , * To download files you need a Bittorrent Client , * How to download torrents from Bit Torrent Scene?

Scrape History ( seeds + peers )

Internal Files

The Imitation Game 2014 720p BluRay x264 Dual Audio [Hindi 2.0 - English 2.0] ESub
The Imitation Game 2014 720p BluRay x264 Dual Audio [Hindi 2.0 - English 2.0] ESub.mkv   893.67 MB

Hash Code

8556b0d16cadcf758c154c147eaf693740f7839a

Description


SCREENSHOT

General
Format : Matroska
Format version : Version 4 / Version 2
File size : 894 MiB
Duration : 1 h 54 min
Overall bit rate : 1 094 kb/s

Video
ID : 1
Format : AVC
Format/Info : Advanced Video Codec
Format profile : High@L4.1
Format settings : CABAC / 4 Ref Frames
Format settings, CABAC : Yes
Format settings, RefFrames : 4 frames
Codec ID : V_MPEG4/ISO/AVC
Duration : 1 h 54 min
Bit rate : 898 kb/s
Width : 1 280 pixels
Height : 536 pixels
Display aspect ratio : 2.40:1
Frame rate mode : Constant
Frame rate : 23.976 (24000/1001) FPS
Original frame rate : 23.976 (23976/1000) FPS
Color space : YUV
Chroma subsampling : 4:2:0
Bit depth : 8 bits
Scan type : Progressive
Bits/(Pixel*Frame) : 0.055
Stream size : 734 MiB (82%)
Writing library : x264 core 123 r2189 35cf912
Default : Yes
Forced : No

Audio #1
ID : 3
Format : AAC
Format/Info : Advanced Audio Codec
Format profile : LC
Codec ID : A_AAC-2
Duration : 1 h 54 min
Bit rate : 128 kb/s
Channel(s) : 2 channels
Channel positions : Front: L R
Sampling rate : 44.1 kHz
Frame rate : 43.066 FPS (1024 SPF)
Compression mode : Lossy
Stream size : 105 MiB (12%)
Language : Hindi
Default : Yes
Forced : No

Audio #2
ID : 4
Format : AAC
Format/Info : Advanced Audio Codec
Format profile : LC
Codec ID : A_AAC-2
Duration : 1 h 54 min
Bit rate : 64.8 kb/s
Channel(s) : 2 channels
Channel positions : Front: L R
Sampling rate : 44.1 kHz
Frame rate : 43.066 FPS (1024 SPF)
Compression mode : Lossy
Stream size : 52.9 MiB (6%)
Language : English
Default : No
Forced : No

Text
ID : 2
Format : UTF-8
Codec ID : S_TEXT/UTF8
Codec ID/Info : UTF-8 Plain Text
Duration : 1 h 45 min
Bit rate : 67 b/s
Count of elements : 1499
Stream size : 52.3 KiB (0%)
Default : Yes
Forced : No





https://pichub.site/image/fslbN
https://pichub.site/image/fsXUZ
https://pichub.site/image/fsZKX
https://pichub.site/image/fsn9g
https://pichub.site/image/fsHMJ

Trackers

Refresh Leechers : Updated June 21, 2018

1. udp://tracker.pirateparty.gr:6969/announce

2. udp://tracker.opentrackr.org:1337/announce

3. http://tracker.opentrackr.org/announce

4. udp://tracker.vanitycore.co:6969/announce

5. udp://public.popcorn-tracker.org:6969/announce

6. udp://9.rarbg.to:2710/announce

7. udp://9.rarbg.me:2710/announce

8. udp://9.rarbg.com:2770/announce

9. udp://inferno.demonoid.pw:3391/announce

10. udp://tracker.internetwarriors.net:1337/announce

11. udp://ipv4.tracker.harry.lu:80/announce

12. udp://p4p.arenabg.ch:1337/announce

13. http://tracker.vanitycore.co:6969/announce

14. http://public.popcorn-tracker.org:6969/announce

15. udp://tracker.zer0day.to:1337/announce

Comments

You must log in to add a comment.

Embed Code

Sharing Widget

Related torrents

FILENAME SIZE SEEDS PEERS ADDED UPD
[i] downloadhub in The Imitation Game (2014) 720p BluRay x264 [Dual-Audio][Hindi - English] ESubs - Downloadhub
posted by downloadhub in Movies - Drama
1001.69 MB 12 7 3 months 3 days
[i] The Imitation Game (2014) (1080p Bluray x265 HEVC 10bit AAC 5.1 Tigole) [UTR] 2.51 GB 9 2 1 year 1 month
[i] The Imitation Game 2014 720p x264 Esub BluRay Dual Audio English Hindi GOPISAHI
posted by gopisahi in Movies - Drama
550.22 MB 1 0 3 months 2 days

Top Movies ( auto generated report )

FILENAME SIZE SEEDS PEERS ADDED UPD
[i] Rampage (2018) [WEBRip] [720p] [YTS AM] 924.3 MB 12877 8865 5 days 2 days
[i] Rampage (2018) [WEBRip] [1080p] [YTS AM] 1.73 GB 11810 9729 5 days 4 days
[i] Ready Player One (2018) [WEBRip] [1080p] [YTS AM] 2.24 GB 10162 5063 5 days 3 days
[i] Ready Player One (2018) [WEBRip] [720p] [YTS AM] 1.16 GB 9167 6479 5 days 4 days
[i] Life of the Party (2018) [WEBRip] [720p] [YTS AM] 886.77 MB 3245 2104 5 days 4 days
[i] Blockers (2018) [WEBRip] [720p] [YTS AM] 861.94 MB 3014 1665 3 days 1 day
[i] Isle of Dogs (2018) [WEBRip] [1080p] [YTS AM] 1.55 GB 2561 854 3 days 2 days
[i] Blockers (2018) [WEBRip] [1080p] [YTS AM] 1.62 GB 2549 1065 3 days 2 days
[i] The Death of Superman (2018) [WEBRip] [720p] [YTS AM] 690.36 MB 2300 1288 5 days 4 days
[i] Life of the Party (2018) [WEBRip] [1080p] [YTS AM] 1.67 GB 2148 1183 5 days 4 days